<?xml version="1.0" standalone="no"?>
<!DOCTYPE svg PUBLIC "-//W3C//DTD SVG 1.1//EN" "http://www.w3.org/Graphics/SVG/1.1/DTD/svg11.dtd" >
<svg xmlns="http://www.w3.org/2000/svg">
<metadata></metadata>
<defs>
<font id="genericonsregular" horiz-adv-x="2048" >
<font-face units-per-em="2048" ascent="1638" descent="-410" />
<missing-glyph horiz-adv-x="500" />
<glyph unicode="&#xe000;" horiz-adv-x="500" d="M0 0z" />
<glyph unicode="&#xf100;" d="M512 1280v128h1024v-128h-1024zM512 1152h640v-128h-640v128zM1536 1024h-256v128h256v-128zM512 896h256v-128h-256v128zM1536 768h-640v128h640v-128zM1280 512h-768v128h768v-128z" />
<glyph unicode="&#xf101;" d="M1024 1792q209 0 385.5 -103t279.5 -279.5t103 -385.5t-103 -385.5t-279.5 -279.5t-385.5 -103t-385.5 103t-279.5 279.5t-103 385.5t103 385.5t279.5 279.5t385.5 103zM1024 768q106 0 181 75t75 181t-75 181t-181 75t-181 -75t-75 -181t75 -181t181 -75z" />
<glyph unicode="&#xf102;" d="M1280 1664l128 -256h512v-1024h-1792v896l512 128l128 256h512zM256 1600h256v-96l-256 -64v160zM1024 512q186 0 317 131.5t131 316.5t-131 316.5t-317 131.5q-185 0 -316.5 -131.5t-131.5 -316.5t131.5 -316.5t316.5 -131.5zM1024 1280q133 0 226.5 -93.5t93.5 -226.5 t-93.5 -226.5t-226.5 -93.5t-226.5 93.5t-93.5 226.5t93.5 226.5t226.5 93.5z" />
<glyph unicode="&#xf103;" d="M1024 1024h-896v384h896v-384zM1152 512v896h896v-896h-896zM512 512h-384v384h384v-384zM1024 512h-384v384h384v-384z" />
<glyph unicode="&#xf104;" d="M512 384v1280l1152 -640z" />
<glyph unicode="&#xf105;" d="M896 384v664q-113 40 -184.5 138t-71.5 222q0 159 112.5 271.5t271.5 112.5t271.5 -112.5t112.5 -271.5q0 -124 -71.5 -222t-184.5 -138v-536z" />
<glyph unicode="&#xf106;" d="M768 640h-384l128 768h512zM1152 640l128 768h512l-256 -768h-384z" />
<glyph unicode="&#xf107;" d="M870 1450l135 136q75 75 181 75t181 -75l91 -91q75 -75 75 -181t-75 -181l-136 -136l-90 91l135 136q38 37 38 90t-38 91l-90 90q-38 38 -91 38t-90 -38l-136 -135zM1186 1224l-362 -362l-90 90l362 362zM553 771l90 -90q38 -38 91 -38t90 38l136 135l91 -90l-136 -136 q-75 -75 -181 -75t-181 75l-91 91q-75 75 -75 181t75 181l136 135l91 -90l-136 -136q-38 -37 -38 -90t38 -91z" />
<glyph unicode="&#xf108;" d="M256 1792h1024q96 0 176 -80t80 -176v-384q0 -96 -80 -176t-176 -80h-448l-448 -448v448h-128q-96 0 -176 80t-80 176v384q0 96 80 176t176 80zM1664 1152v384q96 0 176 -80t80 -176v-384q0 -96 -80 -176t-176 -80h-128v-448l-448 448h-320l128 128h384q168 0 276 108 t108 276z" />
<glyph unicode="&#xf109;" d="M256 768v512h384l384 384v-1280l-384 384h-384zM1386 1386l91 91q88 -89 137.5 -206t49.5 -247q0 -87 -23 -170t-64.5 -153.5t-99.5 -129.5l-91 91q71 71 110.5 164.5t39.5 197.5t-39.5 197.5t-110.5 164.5zM1205 1205l91 91q53 -54 82.5 -124t29.5 -148t-29.5 -148 t-82.5 -124l-91 91q75 75 75 181t-75 181z" />
<glyph unicode="&#xf200;" d="M1024 2048q212 0 402 -79.5t326.5 -216t216 -326.5t79.5 -402t-79.5 -402t-216 -326.5t-326.5 -216t-402 -79.5t-402 79.5t-326.5 216t-216 326.5t-79.5 402t79.5 402t216 326.5t326.5 216t402 79.5zM1280 384v-224q293 98 466.5 327.5t173.5 536.5q0 176 -73 341.5 t-194.5 287t-287 194.5t-341.5 73t-341.5 -73t-287 -194.5t-194.5 -287t-73 -341.5q0 -307 173.5 -536.5t466.5 -327.5v224q0 224 128 224q-125 0 -213.5 16t-146.5 47t-91.5 83t-47 115.5t-13.5 154.5q0 100 25 187t71 133q-28 71 -28 143t14 109l14 36q7 0 18 -1t44 -7.5 t63 -18.5t67 -38.5t64 -62.5q144 24 300 24t276 -24q27 36 60 62.5t60.5 38.5t51.5 18.5t38 7.5l14 1q4 -5 10 -14.5t19 -40.5t20 -63t4 -78.5t-21 -91.5q96 -144 96 -320q0 -113 -21 -187.5t-75 -128t-147.5 -77t-236.5 -23.5q49 -25 72.5 -77.5t23.5 -146.5z" />
<glyph unicode="&#xf201;" d="M1024 2048q206 0 395.5 -82t327 -219.5t219.5 -327t82 -395.5t-82 -395.5t-219.5 -327t-327 -219.5t-395.5 -82t-395.5 82t-327 219.5t-219.5 327t-82 395.5t82 395.5t219.5 327t327 219.5t395.5 82zM1024 1920q-32 0 -96 -8t-96 -8q102 -166 304 -512q6 2 86 31 t118.5 45t108 47t122 64t93.5 69q-126 126 -290.5 199t-349.5 73zM672 1856q-194 -85 -329.5 -247.5t-182.5 -376.5q194 -22 444 14t388 82q-141 282 -320 528zM1760 1536q-71 -57 -162 -104.5t-214.5 -100.5t-183.5 -83q22 -29 36.5 -54.5t34 -67.5t25.5 -54q170 33 336 30 t288 -30q-26 285 -160 464zM128 1088v-64q0 -167 58 -319.5t166 -272.5q125 205 339 360t445 232q-16 48 -80 176q-282 -86 -481.5 -111t-446.5 -1zM1536 288q156 108 258 278t126 362q-276 46 -576 0q14 -27 43 -103t74.5 -231t74.5 -306zM1024 128q181 0 368 80 q-33 300 -208 688q-222 -74 -410 -225.5t-294 -350.5q216 -192 544 -192z" />
<glyph unicode="&#xf202;" d="M2048 1659q-84 -127 -210 -217q2 -36 2 -55q0 -168 -49 -337t-150 -323.5t-241 -273.5t-336 -190t-420 -71q-351 0 -644 189q50 -6 100 -6q293 0 522 180q-137 2 -244.5 83t-147.5 208q44 -7 79 -7q57 0 110 15q-145 29 -241 144.5t-96 267.5v5q86 -48 191 -53 q-86 58 -136.5 150t-50.5 200q0 113 57 211q158 -194 383 -310t483 -129q-11 49 -11 96q0 174 123 297t297 123q89 0 168.5 -35t138.5 -97q142 27 266 102q-47 -150 -184 -233q124 15 241 66z" />
<glyph unicode="&#xf203;" d="M117 0h1814q48 0 82.5 34.5t34.5 82.5v1814q0 48 -34.5 82.5t-82.5 34.5h-1814q-48 0 -82.5 -34.5t-34.5 -82.5v-1814q0 -48 34.5 -82.5t82.5 -34.5zM1442 1479v-207h329l-14 -303h-315v-841h-320v841h-222v303h222v258q0 78 26 147t77 124t136.5 87t194.5 32 q55 0 108 -3t79 -6l26 -3l-7 -282h-193q-76 0 -101.5 -32t-25.5 -101v-3v-2v-9z" />
<glyph unicode="&#xf204;" d="M1182 1479v-207h329l-14 -303h-315v-841h-320v841h-222v303h222v258q0 78 26 147t77 124t136.5 87t194.5 32q55 0 108 -3t79 -6l26 -3l-7 -282h-193q-76 0 -101.5 -32t-25.5 -101v-3v-2v-9z" />
<glyph unicode="&#xf205;" d="M1024 2048q208 0 398 -81t327 -218.5t218 -327t81 -397.5q0 -209 -81 -398.5t-218 -326.5t-326.5 -218t-398.5 -81q-208 0 -397.5 81t-327 218t-218.5 327t-81 398t81 397.5t218.5 327t327 218.5t397.5 81zM1456 537l90 301q69 177 69 293q0 51 -14 107q-18 45 -40 81 q-2 3 -15 24t-15.5 25t-13 22t-13 24.5t-10 22t-10 24.5t-6.5 22t-5 25t-1 24q0 63 42 110.5t106 49.5q-121 108 -274.5 168t-321.5 60q-226 0 -421 -105t-318 -285q4 0 13.5 -0.5t15.5 -0.5q70 0 127.5 2.5t80.5 4.5l22 3q29 2 46.5 -16t19.5 -40.5t-13 -43t-44 -24.5 q-27 -4 -70 -8l295 -877l198 591l-104 283l-90 11q-38 2 -51.5 34t4.5 62t56 28q54 -10 201 -10q70 0 127.5 2.5t80.5 4.5l22 3q38 2 56.5 -27t5 -60.5t-51.5 -36.5q-27 -4 -69 -8zM1756 1041l-271 -785q199 120 317 324t118 444q0 216 -99 409q4 -44 4 -68q0 -153 -69 -324 zM623 223l-421 1156q-74 -168 -74 -355q0 -259 135.5 -473.5t359.5 -327.5zM1040 945l-268 -780q123 -37 252 -37q152 0 296 51q0 1 -1 1l-1 2z" />
<glyph unicode="&#xf206;" d="M1920 1696v-160h-256v256h-128v-256h-256v-128h256v-256h128v256h256v-1056q0 -96 -64 -160t-160 -64h-544v64q0 128 -43.5 215t-180.5 201q-60 30 -126 89.5t-66 102.5q0 46 26.5 78t101.5 82q48 48 72.5 75t57.5 70.5t47.5 86t14.5 88.5q0 122 -48.5 213.5 t-143.5 138.5h160l160 160h-608q-133 0 -249.5 -55t-198.5 -137v96q0 96 64 160t160 64h1344q96 0 160 -64t64 -160zM576 928q-122 0 -225 109.5t-127 274.5q-23 164 54.5 274t201.5 110q121 -24 208.5 -136.5t111.5 -279.5q24 -165 -38.5 -258.5t-185.5 -93.5zM128 480v480 q52 -52 140.5 -90t179.5 -38h64q0 -16 -16 -48t-16 -48q0 -50 25 -93.5t71 -66.5h-128q-176 0 -320 -96zM960 128h-608q-73 0 -136.5 44.5t-87.5 115.5q49 98 162 161t254 63q32 0 80 -16t80 -16q11 -8 41 -30.5l40 -30t34.5 -26.5t34 -28t28 -25.5t27 -28t20.5 -27t19 -30 t12 -30.5v-64v-32z" />
<glyph unicode="&#xf207;" d="M530 1285h1q67 0 108.5 39.5t41.5 97.5q-2 60 -42 98.5t-106 38.5q-67 0 -108 -39t-41 -98q0 -58 40.5 -97.5t105.5 -39.5zM1350 384h264v455q0 175 -83.5 266t-220.5 91q-50 0 -90.5 -12t-68.5 -34t-45 -41t-33 -44v112h-264v-793h264v443q0 45 8 64q16 40 50.5 68 t85.5 28q133 0 133 -179v-424zM400 384h263v793h-263v-793z" />
<glyph unicode="&#xf208;" d="M384 1920h1280q106 0 181 -75t75 -181v-1280q0 -106 -75 -181t-181 -75h-1280q-106 0 -181 75t-75 181v1280q0 106 75 181t181 75zM530 1285h1q67 0 108.5 39.5t41.5 97.5q-2 60 -42 98.5t-106 38.5q-67 0 -108 -39t-41 -98q0 -58 40.5 -97.5t105.5 -39.5zM1350 384h264 v455q0 175 -83.5 266t-220.5 91q-50 0 -90.5 -12t-68.5 -34t-45 -41t-33 -44v112h-264v-793h264v443q0 45 8 64q16 40 50.5 68t85.5 28q133 0 133 -179v-424zM400 384h263v793h-263v-793z" />
<glyph unicode="&#xf209;" d="M667 0l-149 54q-7 167 22 290l162 688q-40 81 -40 200q0 139 70.5 232.5t172.5 93.5q83 0 127 -53.5t44 -135.5q0 -51 -18.5 -124t-49 -170t-44.5 -154q-23 -99 37.5 -171t161.5 -72q117 0 209.5 92t142 244.5t49.5 334.5q0 214 -139 349t-387 135q-139 0 -257.5 -49.5 t-197 -133t-122.5 -193t-44 -229.5q0 -147 83 -247q18 -21 21.5 -34t-3.5 -37q-16 -61 -25 -101q-7 -24 -24.5 -32t-39.5 1q-127 51 -192.5 181.5t-65.5 300.5q0 109 35.5 219t110 213t179 182t254 126.5t323.5 47.5q176 0 327.5 -60.5t253.5 -161t160 -231t58 -270.5 q0 -246 -85 -443t-241 -309.5t-355 -112.5q-99 0 -186.5 46.5t-121.5 110.5q-73 -290 -89 -347q-34 -123 -127 -270z" />
<glyph unicode="&#xf210;" d="M1024 2048q209 0 398.5 -81t326.5 -218t218 -326.5t81 -398.5t-81 -398.5t-218 -326.5t-326.5 -218t-398.5 -81q-147 0 -290 42q74 116 103 219l72 282q28 -53 99 -90.5t151 -37.5q162 0 288.5 91.5t195.5 251t69 359.5q0 114 -47 220t-130 187.5t-206.5 130.5t-265.5 49 q-141 0 -262 -38.5t-205.5 -103t-145.5 -147.5t-89.5 -172.5t-28.5 -178.5q0 -138 53 -243.5t156 -147.5q18 -8 32.5 -1t18.5 26q2 9 10 41t11 41q5 19 2.5 30t-16.5 28q-68 78 -68 200q0 97 35.5 186t99.5 156.5t160 108t209 40.5q201 0 313.5 -109.5t112.5 -283.5 q0 -148 -40 -271.5t-115 -198t-169 -74.5q-82 0 -131.5 58.5t-30.5 138.5q11 46 35.5 125t39.5 138t15 101q0 66 -35.5 109.5t-102.5 43.5q-82 0 -139.5 -76t-57.5 -189q0 -43 8 -83.5t16 -59.5l9 -19q-113 -475 -132 -558q-24 -97 -18 -235q-275 120 -444 374t-169 564 q0 208 81 398t218.5 327t327 218t397.5 81z" />
<glyph unicode="&#xf211;" d="M992 1024q0 172 -122 294t-294 122t-294 -122t-122 -294t122 -294t294 -122t294 122t122 294zM1888 1024q0 172 -122 294t-294 122t-294 -122t-122 -294t122 -294t294 -122t294 122t122 294z" />
<glyph unicode="&#xf212;" d="M128 1379l84 -108q121 84 141 84q92 0 173 -287q24 -87 72 -262.5t72 -262.5q108 -287 265 -287q253 0 619 471q353 451 365 710q16 347 -260 355q-373 12 -505 -417q69 29 133 29q136 0 120 -152q-8 -92 -120 -268q-113 -176 -169 -176q-73 0 -133 271q-20 78 -72 407 q-49 303 -258 284q-89 -8 -265 -160q-126 -113 -262 -231z" />
<glyph unicode="&#xf213;" d="M512 1664h1024q104 0 192.5 -51.5t140 -140t51.5 -192.5v-512q0 -104 -51.5 -192.5t-140 -140t-192.5 -51.5h-1024q-104 0 -192.5 51.5t-140 140t-51.5 192.5v512q0 104 51.5 192.5t140 140t192.5 51.5zM768 1408v-768l640 384z" />
<glyph unicode="&#xf300;" d="M512 1536h1024q106 0 181 -75t75 -181v-384q0 -106 -75 -181t-181 -75h-448l-448 -448v448h-128q-106 0 -181 75t-75 181v384q0 106 75 181t181 75z" />
<glyph unicode="&#xf301;" d="M640 1024l64 128h960l-256 -640h-1024v1024h384l64 -128h448v-128h-640l-128 -256h128z" />
<glyph unicode="&#xf302;" d="M256 768l768 768h512v-512l-768 -768zM1280 1152q53 0 90.5 37.5t37.5 90.5t-37.5 90.5t-90.5 37.5t-90.5 -37.5t-37.5 -90.5t37.5 -90.5t90.5 -37.5z" />
<glyph unicode="&#xf303;" d="M960 1792q143 0 273.5 -55.5t225 -150t150 -225t55.5 -273.5t-55.5 -273.5t-150 -225t-225 -150t-273.5 -55.5t-273.5 55.5t-225 150t-150 225t-55.5 273.5t55.5 273.5t150 225t225 150t273.5 55.5zM960 512q117 0 223.5 45.5t184 123t123 184t45.5 223.5t-45.5 223.5 t-123 184t-184 123t-223.5 45.5t-223.5 -45.5t-184 -123t-123 -184t-45.5 -223.5t45.5 -223.5t123 -184t184 -123t223.5 -45.5zM896 1536h128v-421l298 -298l-90 -91l-336 336v474z" />
<glyph unicode="&#xf304;" d="M1024 1152q-106 0 -181 75t-75 181t75 181t181 75t181 -75t75 -181t-75 -181t-181 -75zM896 1024h256q159 0 271.5 -112.5t112.5 -271.5v-256h-1024v256q0 159 112.5 271.5t271.5 112.5z" />
<glyph unicode="&#xf305;" d="M1408 1792v-128h256v-1280h-1408v1280h256v128h128v-128h640v128h128zM512 512h896q53 0 90.5 37.5t37.5 90.5v640q0 53 -37.5 90.5t-90.5 37.5h-896q-53 0 -90.5 -37.5t-37.5 -90.5v-640q0 -53 37.5 -90.5t90.5 -37.5zM832 1280h128q26 0 45 -19t19 -45v-512 q0 -26 -19 -45t-45 -19t-45 19t-19 45v448h-64q-26 0 -45 19t-19 45t19 45t45 19z" />
<glyph unicode="&#xf306;" d="M1408 1792v-128h256v-1280h-1408v1280h256v128h128v-128h640v128h128zM512 512h896q53 0 90.5 37.5t37.5 90.5v640q0 53 -37.5 90.5t-90.5 37.5h-896q-53 0 -90.5 -37.5t-37.5 -90.5v-640q0 -53 37.5 -90.5t90.5 -37.5zM832 1280h256h2h1h3q22 -2 38.5 -18t19.5 -39v-2 v-2v-1v-2q0 -5 -2 -15l-128 -512q-6 -26 -28.5 -40t-48.5 -7q-26 6 -40 28.5t-7 48.5l108 433h-174q-26 0 -45 19t-19 45t19 45t45 19z" />
<glyph unicode="&#xf307;" d="M1408 1792v-128h256v-1280h-1408v1280h256v128h128v-128h640v128h128zM512 512h896q53 0 90.5 37.5t37.5 90.5v640q0 53 -37.5 90.5t-90.5 37.5h-896q-53 0 -90.5 -37.5t-37.5 -90.5v-640q0 -53 37.5 -90.5t90.5 -37.5zM896 1152h-128v128h128v-128zM1152 1152h-128v128 h128v-128zM1408 1152h-128v128h128v-128zM640 896h-128v128h128v-128zM896 896h-128v128h128v-128zM1152 896h-128v128h128v-128zM1408 896h-128v128h128v-128zM640 640h-128v128h128v-128zM896 640h-128v128h128v-128zM1152 640h-128v128h128v-128z" />
<glyph unicode="&#xf308;" d="M1280 1920h128l512 -512v-128h-256l-320 -320v-384h-128l-640 640v128h384l320 320v256zM256 384l512 512l128 -128l-512 -512z" />
<glyph unicode="&#xf400;" d="M1664 256l-495 495q-153 -111 -337 -111q-117 0 -223.5 45.5t-184 123t-123 184t-45.5 223.5t45.5 223.5t123 184t184 123t223.5 45.5t223.5 -45.5t184 -123t123 -184t45.5 -223.5q0 -184 -111 -337l495 -495zM832 768q186 0 317 131.5t131 316.5t-131 316.5t-317 131.5 q-185 0 -316.5 -131.5t-131.5 -316.5t131.5 -316.5t316.5 -131.5z" />
<glyph unicode="&#xf401;" d="M1664 256l-495 495q-153 -111 -337 -111q-117 0 -223.5 45.5t-184 123t-123 184t-45.5 223.5t45.5 223.5t123 184t184 123t223.5 45.5t223.5 -45.5t184 -123t123 -184t45.5 -223.5q0 -184 -111 -337l495 -495zM832 768q186 0 317 131.5t131 316.5t-131 316.5t-317 131.5 q-185 0 -316.5 -131.5t-131.5 -316.5t131.5 -316.5t316.5 -131.5zM1152 1152h-640v128h640v-128z" />
<glyph unicode="&#xf402;" d="M1297 879l495 -495l-128 -128l-495 495q-153 -111 -337 -111q-117 0 -223.5 45.5t-184 123t-123 184t-45.5 223.5t45.5 223.5t123 184t184 123t223.5 45.5t223.5 -45.5t184 -123t123 -184t45.5 -223.5q0 -184 -111 -337zM384 1216q0 -185 131.5 -316.5t316.5 -131.5 q186 0 317 131.5t131 316.5t-131 316.5t-317 131.5q-185 0 -316.5 -131.5t-131.5 -316.5zM896 1280h256v-128h-256v-256h-128v256h-256v128h256v256h128v-256z" />
<glyph unicode="&#xf403;" d="M0 1024l506 506q101 103 234.5 160.5t283.5 57.5t283.5 -57.5t233.5 -159.5l507 -507l-506 -507q-101 -103 -234.5 -160t-283.5 -57t-283.5 57.5t-233.5 160.5zM272 1024l370 -371q77 -78 175.5 -119.5t206.5 -41.5t206 41.5t174 118.5l373 372l-371 371 q-158 161 -382 161q-108 0 -206.5 -41t-173.5 -119zM1024 1408q159 0 271.5 -112.5t112.5 -271.5t-112.5 -271.5t-271.5 -112.5t-271.5 112.5t-112.5 271.5t112.5 271.5t271.5 112.5zM1152 1024q53 0 90.5 37.5t37.5 90.5t-37.5 90.5t-90.5 37.5t-90.5 -37.5t-37.5 -90.5 t37.5 -90.5t90.5 -37.5z" />
<glyph unicode="&#xf404;" d="M1382 1653l-143 -143q-103 46 -215 46q-108 0 -206.5 -41t-173.5 -119l-372 -372l240 -240l-136 -136l-376 376l506 506q101 103 234.5 160.5t283.5 57.5q193 0 358 -95zM339 429l90 -90l1280 1280l-90 90zM1122 1394l-468 -468q-14 54 -14 98q0 159 112.5 271.5 t271.5 112.5q44 0 98 -14zM1536 1265l136 135l376 -376l-506 -507q-101 -103 -234.5 -160t-283.5 -57q-193 0 -358 95l143 143q103 -46 215 -46q108 0 206 41.5t174 118.5l373 372zM926 654l468 468q14 -54 14 -98q0 -159 -112.5 -271.5t-271.5 -112.5q-44 0 -98 14z" />
<glyph unicode="&#xf405;" d="M1408 1536l128 -128l-320 -320l320 -320l-128 -128l-320 320l-320 -320l-128 128l320 320l-320 320l128 128l320 -320z" />
<glyph unicode="&#xf406;" d="M1920 2048l128 -128l-832 -832l832 -832l-128 -128l-832 832l-832 -832l-128 128l832 832l-832 832l128 128l832 -832z" />
<glyph unicode="&#xf407;" d="M1140 1536h140q106 0 181 -75t75 -181h-128v-768q0 -53 -37.5 -90.5t-90.5 -37.5h-640q-53 0 -90.5 37.5t-37.5 90.5v768h-128q0 106 75 181t181 75h140q20 56 69.5 92t110.5 36q62 0 111 -35.5t69 -92.5zM640 1216v-640q0 -26 19 -45t45 -19t45 19t19 45v640 q0 26 -19 45t-45 19t-45 -19t-19 -45zM896 1216v-640q0 -26 19 -45t45 -19t45 19t19 45v640q0 26 -19 45t-45 19t-45 -19t-19 -45zM1280 576v640q0 26 -19 45t-45 19t-45 -19t-19 -45v-640q0 -26 19 -45t45 -19t45 19t19 45z" />
<glyph unicode="&#xf408;" d="M1205 1150l-181 535l-180 -534h-588l476 -330l-183 -535l475 332l475 -332l-183 535l476 329h-587z" />
<glyph unicode="&#xf409;" d="M384 1024l640 640l640 -640l-128 -128l-512 512l-512 -512zM640 512v384l384 384l384 -384v-384h-256v384h-256v-384h-256z" />
<glyph unicode="&#xf410;" d="M0 1792h2048l-1024 -1024zM0 512v1152l576 -576zM2048 1664v-1152l-576 576zM640 1024l384 -384l384 384l640 -640h-2048z" />
<glyph unicode="&#xf411;" d="M384 832l896 896l448 -448l-896 -896h-448v448zM1376 1440l-96 96l-595 -595l96 -96zM941 685l595 595l-96 96l-595 -595zM512 768l256 -256l128 128l-256 256z" />
<glyph unicode="&#xf412;" d="M1280 1472l640 -640l-640 -640v448h-1024v704l384 384v-704h640v448z" />
<glyph unicode="&#xf413;" d="M1920 128h-345q0 197 -52 385.5t-145.5 348t-227 294t-292 228t-346 146t-383.5 52.5v345q243 0 475 -64.5t428.5 -181t362 -282.5t281 -363.5t180 -430.5t64.5 -477zM1311 128h-345q0 170 -63.5 324t-181.5 273q-119 119 -272 182.5t-321 63.5v345q240 0 459 -94 t377.5 -253.5t252.5 -379.5t94 -461zM384 640q106 0 181 -75t75 -181t-75 -181t-181 -75t-181 75t-75 181t75 181t181 75z" />
<glyph unicode="&#xf414;" d="M1237 1711l759 -1237q88 -142 31 -244t-224 -102h-1557q-168 0 -225 102t31 244l760 1237q57 93 134.5 126.5t155 0t135.5 -126.5zM896 1280v-384q0 -53 37.5 -90.5t90.5 -37.5t90.5 37.5t37.5 90.5v384q0 53 -37.5 90.5t-90.5 37.5t-90.5 -37.5t-37.5 -90.5zM1024 384 q53 0 90.5 37.5t37.5 90.5t-37.5 90.5t-90.5 37.5t-90.5 -37.5t-37.5 -90.5t37.5 -90.5t90.5 -37.5z" />
<glyph unicode="&#xf415;" d="M128 1280v-256h400q45 0 79.5 27.5t44.5 69.5q33 125 136.5 206t235.5 81q154 0 270 -114q38 -38 90.5 -38t90.5 38q37 38 37 91t-37 90q-88 89 -204.5 139t-246.5 50q-194 0 -353 -106t-234 -278h-309zM1280 1024q0 106 -75 181t-181 75t-181 -75t-75 -181t75 -181 t181 -75t181 75t75 181zM1611 768h309v256h-400q-45 0 -79.5 -27.5t-44.5 -69.5q-33 -125 -136.5 -206t-235.5 -81q-156 0 -269 115q-38 37 -91 37t-91 -38q-37 -38 -37 -91t37 -90q89 -89 205 -139t246 -50q194 0 353 106t234 278z" />
<glyph unicode="&#xf416;" d="M768 960v512q0 133 93.5 226.5t226.5 93.5t226.5 -93.5t93.5 -226.5v-640q0 -185 -131.5 -316.5t-316.5 -131.5t-316.5 131.5t-131.5 316.5v320h128v-320q0 -133 93.5 -226.5t226.5 -93.5t226.5 93.5t93.5 226.5v640q0 80 -56 136t-136 56t-136 -56t-56 -136v-512 q0 -26 19 -45t45 -19t45 19t19 45v452h128v-452q0 -80 -56 -136t-136 -56t-136 56t-56 136z" />
<glyph unicode="&#xf417;" d="M960 402l-407 406q-80 80 -124.5 185.5t-44.5 222.5t45.5 223.5t123 184t184 123t223.5 45.5t223.5 -45.5t184 -123t123 -184t45.5 -223.5t-44.5 -222.5t-124.5 -185.5zM960 896q133 0 226.5 93.5t93.5 226.5t-93.5 226.5t-226.5 93.5t-226.5 -93.5t-93.5 -226.5 t93.5 -226.5t226.5 -93.5z" />
<glyph unicode="&#xf418;" d="M960 992l448 512l128 -96l-512 -768h-128l-288 416l128 128z" />
<glyph unicode="&#xf419;" d="M0 1536v256h2048v-256h-2048zM2048 896h-2048v256h2048v-256zM2048 256h-2048v256h2048v-256z" />
<glyph unicode="&#xf420;" d="M384 1280v128h1280v-128h-1280zM1664 512h-1280l640 640z" />
<glyph unicode="&#xf421;" d="M384 896v256h1152v-256h-1152z" />
<glyph unicode="&#xf422;" d="M384 512v1024h1152v-1024h-1152zM512 640h896v640h-896v-640z" />
<glyph unicode="&#xf423;" d="M456 1503l112 -62l-267 -481h403v-384h-128v256h-493zM1912 1441l-267 -481h403v-384h-128v256h-493l373 671zM1088 1344q87 0 160.5 -43t116.5 -116.5t43 -160.5t-43 -160.5t-116.5 -116.5t-160.5 -43t-160.5 43t-116.5 116.5t-43 160.5t43 160.5t116.5 116.5t160.5 43z M1088 832q79 0 135.5 56.5t56.5 135.5t-56.5 135.5t-135.5 56.5t-135.5 -56.5t-56.5 -135.5t56.5 -135.5t135.5 -56.5z" />
<glyph unicode="&#xf500;" d="M1088 960l960 -960h-1920z" />
<glyph unicode="&#xf501;" d="M960 1088l-960 960v-1920z" />
<glyph unicode="&#xf502;" d="M1088 1088l960 960h-1920z" />
<glyph unicode="&#xf503;" d="M1088 1088l960 960v-1920z" />
</font>
</defs>
</svg>
